Unlocked.2017.BluRay.1080p.x264.AAC.5.1.-.Hon3y

  • Category Movies
  • Type HD
  • Language English
  • Total size 2.2 GB
  • Uploaded By Hon3yHD
  • Downloads 1799
  • Last checked 1 week ago
  • Date uploaded 1 week ago
  • Seeders 35
  • Leechers 23

Unlocked

ThrillerAction

A CIA agent is baited into a trap involving London and a biological attack.

Infohash : DE1F94035C9D115A33CE57D7A03B0E86B61F651F





Format : Matroska
Format version : Version 4 / Version 2
File size : 2.18 GiB
Duration : 1 h 33 min
Overall bit rate : 3 322 kb/s

Video
ID : 1
Format : AVC
Format/Info : Advanced Video Codec
Format profile : [email protected]
Format settings, CABAC : Yes
Format settings, RefFrames : 5 frames
Codec ID : V_MPEG4/ISO/AVC
Duration : 1 h 33 min
Bit rate : 3 000 kb/s
Width : 1 920 pixels
Height : 802 pixels
Display aspect ratio : 2.40:1
Frame rate mode : Constant
Frame rate : 25.000 FPS

Audio
ID : 2
Format : AAC
Format/Info : Advanced Audio Codec
Format profile : LC
Codec ID : A_AAC
Duration : 1 h 33 min
Bit rate : 319 kb/s
Channel(s) : 6 channels
Channel positions : Front: L C R, Side: L R, LFE
Sampling rate : 48.0 kHz
Frame rate : 46.875 FPS (1024 SPF)
Compression mode : Lossy
Delay relative to video : -21 ms
Stream size : 215 MiB (10%)
Title : Surround
Language : English


Text
ID : 3
Format : ASS
Codec ID : S_TEXT/ASS
Codec ID/Info : Advanced Sub Station Alpha
Duration : 1 h 10 min
Bit rate : 4 b/s
Count of elements : 50
Compression mode : Lossless
Stream size : 2.56 KiB (0%)
Language : French
Default : No
Forced : No

Menu
00:00:00.000 : :00:00:00.000
00:08:25.880 : :00:08:25.880
00:13:24.400 : :00:13:24.400
00:21:02.240 : :00:21:02.240
00:26:52.520 : :00:26:52.520
00:31:47.240 : :00:31:47.200
00:40:35.280 : :00:40:35.200
00:47:40.880 : :00:47:40.880
00:54:16.520 : :00:54:16.520
01:03:01.160 : :01:03:01.160
01:12:45.080 : :01:12:45.080
01:19:33.560 : :01:19:33.560

http://hon3yhd.to/

Files:

Unlocked.2017.BluRay.1080p.x264.AAC.5.1.-.Hon3y
  • www.Hon3yHD.to.txt (0.1 KB)
  • Unlocked.2017.BluRay.1080p.x264.AAC.5.1.-.Hon3y.mkv (2.2 GB)

There are currently no comments. Feel free to leave one :)

Code:

  • http://ipv4.tracker.harry.lu/announce
  • http://ipv4.tracker.harry.lu:80/announce
  • http://opentracker-milanesi.rhcloud.com/announce
  • http://t.nyaatracker.com/announce
  • http://tracker.devil-torrents.pl:80/announce
  • http://tracker.devil-torrents.pl/announce
  • http://open.kickasstracker.com/announce
  • http://opentracker-milanesi.rhcloud.com:80/announce
  • http://open.kickasstracker.com:443/announce
  • http://opentracker-milanesi.rhcloud.com:443/announce
  • http://t.nyaatracker.com:80/announce
  • udp://9.rarbg.me:2770/announce
  • udp://9.rarbg.com:2740/announce
  • udp://9.rarbg.to:2750/announce
  • udp://tracker.coppersurfer.tk:6969/announce